Sequestro no Espaço BluRay 1080p Dual Áudio

25
Sequestro no Espaço BluRay 1080p Dual Áudio

FICHA TÉCNICA

Titulo Original: Lockout
Título Traduzido: Sequestro no Espaço

Gênero: Ação / Ficção / Thriller
Duração:  95 Min
Tamanho: 8.22 GiB

Direção: James Mather, Stephen St. Leger

Qualidade de Audio: 10
Qualidade de Vídeo:10
Formato: MKV
Qualidade: BluRay 1080p
Resolução: 1920 x 808
Codec do Vídeo: x264
Codec do Áudio: DTS

Idioma: Inglês e Português

Legenda: Português BR
Release By: FromHeLLx

Ano do Lançamento: 2012

Sinopse: Num futuro não muito distante, Snow (Guy Pearce) foi acusado injustamente de conspiração contra o governo americano. Agora, para ter de volta a sua liberdade, ele precisa resgatar Emilie Warnock (Maggie Grace), a filha do presidente das garras de perigosos detentos que a capturaram durante uma rebelião em um presídio espacial. O local é um verdadeiro ninho de serpentes, reunindo centenas de criminosos de alta periculosidade, tornando a missão de Snow um grande e perigoso desafio.

Elenco:
Guy Pearce … Snow
Maggie Grace … Emilie Warnock
Vincent Regan … Alex
Joseph Gilgun … Hydell
Lennie James … Shaw
Peter Stormare … Langral
Jacky Ido … Hock
Tim Plester … Mace
Mark Tankersley … Barnes
Anne-Solenne Hatte … Kathryn
Peter Hudson … President Warnock
Nick Hardin … Hostage Negotiator
Dan Savier … Duke
Damijan Oklopdzic … Slick
Bojan Peric … LOPD Technician 1
Evan Moses II … LOPD Technician 2
Greg De Cuir … Radio Technician
Thomas Kelly … White House Doctor 1
Daryl Fidelak … White House Doctor 2
Miodrag Stevanovic … Frank Armstrong

DOWNLOAD
Contas Turbo

FILMES RELACIONADOS PARA VOCÊ

25 Comentários

  1. valeu pelo filme de açao pro final de semana.
    baixando e confirmando elite sempre há frente!!

  2. Marlon cara esta faltando as partes 6 e 7 no depositfile…

  3. ADC!

  4. MarloN, gostaria de fazer uma pergunta. Ambas as partes sao iguais de todos os servidores? ex: posso baixar parte 1, 2, 3, 4, 5 no TurboBit e 6, 7, 8, 9 no Uploaded e juntar dps que da certo? ou sao partes diferentes.?

  5. MarloN, gostaria de fazer uma pergunta. Ambas as partes sao iguais de todos os servidores? ex: posso baixar parte 1, 2, 3, 4, 5 no TurboBit e 6, 7, 8, 9 no Uploaded e juntar dps que da certo? ou sao partes diferentes.?

  6. @Danilo Sim meu querido pode baixar em Ambos servidores q vai dar certo!

  7. filmes esta em imgles nem baixem testado e confirmato legendato credo que gaff

  8. Dual meu querido eu testo antes de postar!

  9. dizipei com o winrrar deu corrompido com o 7zip estraiu file mas o filme ta em imgles testado em 5 players

  10. Atualiza o seu Codec de Audio e Video pq está em Pt Sim!

  11. mano meu codec e o ultimo que saiu 8.9.5.0 e continua mesmo jeito eng fui converter para acistir na tc lg e la tava dizendo que so tinha um audio ing mas ta bom ja to baixando a veçao menor

  12. Baxie o XP Codec Pack 2.5.1

  13. Marlon esta com apenas um áudio é o filme mesmo… valeu!!!

  14. Complete name : C:UsersadminDocumentsMiponyLkct.1080.DUAL-FromHeLLxLkct.1080.DUAL-FromHeLLx.mkv
    Format : Matroska
    Format version : Version 2
    File size : 8.22 GiB
    Duration : 1h 35mn
    Overall bit rate mode : Variable
    Overall bit rate : 12.4 Mbps
    Encoded date : UTC 2012-06-30 02:43:40
    Writing application : mkvmerge v5.4.0 (‘Piper’) built on Mar 10 2012 13:34:39
    Writing library : libebml v1.2.3 + libmatroska v1.3.0

    Video
    ID : 1
    Format : AVC
    Format/Info : Advanced Video Codec
    Format profile : High@L4.1
    Format settings, CABAC : Yes
    Format settings, ReFrames : 5 frames
    Muxing mode : Header stripping
    Codec ID : V_MPEG4/ISO/AVC
    Duration : 1h 35mn
    Bit rate : 9 034 Kbps
    Nominal bit rate : 8 345 Kbps
    Width : 1 920 pixels
    Height : 808 pixels
    Display aspect ratio : 2.40:1
    Frame rate : 23.976 fps
    Color space : YUV
    Chroma subsampling : 4:2:0
    Bit depth : 8 bits
    Scan type : Progressive
    Bits/(Pixel*Frame) : 0.243
    Stream size : 6.02 GiB (73%)
    Writing library : x264 core 125 r2200 999b753
    Language : English
    Default : Yes
    Forced : No

    Audio #1
    ID : 2
    Format : DTS
    Format/Info : Digital Theater Systems
    Format profile : MA / Core
    Muxing mode : Header stripping
    Codec ID : A_DTS
    Duration : 1h 35mn
    Bit rate mode : Variable
    Bit rate : 1 561 Kbps / 1 510 Kbps
    Channel(s) : 6 channels
    Channel positions : Front: L C R, Side: L R, LFE
    Sampling rate : 48.0 KHz
    Bit depth : 16 bits
    Compression mode : Lossless / Lossy
    Language : Portuguese
    Default : No
    Forced : No

    Audio #2
    ID : 3
    Format : DTS
    Format/Info : Digital Theater Systems
    Muxing mode : Header stripping
    Codec ID : A_DTS
    Duration : 1h 35mn
    Bit rate mode : Constant
    Bit rate : 1 510 Kbps
    Channel(s) : 6 channels
    Channel positions : Front: L C R, Side: L R, LFE
    Sampling rate : 48.0 KHz
    Bit depth : 24 bits
    Compression mode : Lossy
    Stream size : 1.01 GiB (12%)
    Default : Yes
    Forced : No

  15. mano deixa de ser teimoso segunda pessoa que fala pra vc que so tem 1 audio o seu pode estar assim mas o que a gente ta baixando na ta nunca tive pblema aqui com os filmes deixa de ser teimoso todo mundo erra

  16. bom mano retiro o que eu disse realmente seu filme tem 2 audio mas os play nao cosegue lelos de geito aulgum mas consegui convertelo para portugues com uns programs. Aqui esta um video dos programas que uzei para assistir o filme na minha lg de 42 vejao este video e faça o mesmo que o filme fica em portugues
    http://www.youtube.com/watch?v=eHKH6mhPl-w

    e uma dica pra vc mano faça o mesmo procedimento dos outros filmes que vc postou pois aconteceu alguma coisa ai que ja baixei dus vezes e nao rodou em portugues somente convertendo mesmo ai e dois trabalho blz

  17. Gente esse padeiro é chato. O “teu” player dever um “o”. Não deve dar opção de troca de audio ou vc não sabe mexer nele.
    Dica 1: use o VLC media file.
    Muitas tvs não rodam áudio dts.
    Dica 2: Usa o link que vc postou. Desse vez tu foste inteligente “aleluia”.
    Muitas tvs não rodam um filme mkv quando ele tá no modo “Muxing mode : Header stripping”.
    Dica 3: Dá uma olhada nesse link http://www.hardware.com.br/comunidade/mkv-player/1181409/.

  18. só consegui assistir ao filme com esse programa http://sourceforge.net/projects/mpc-hc/files/latest/download nele tem a opção de escolher português.

  19. Somcrabigboy parece que nem leu a mensagem acima. Usa o VLC media file, com ele você roda no pc todos os vídeos, e tem opção de escolher o audio (1° ou 2°), legenda (colocar ou tirar).
    Link do VLC media file http://www.baixaki.com.br/download/vlc-media-player.htm

  20. beleza mas esse tbm é muito bom e tbm tem essa opção de idioma. valeu.

  21. Perdão Marlon, com o VLC realmente aparece os dois áudio o filme como sempre esta perfeito valeu…

  22. Que filme ruim, não sei como Guy Pearce acietou fazer

  23. marlon a parte 3 do uploaded esta dando erro vlw obg pelo belo post

  24. Cara esta faltando a parte 3 e 5

  25. está faltando a parte 3 do uploaded aguar
    do

Deixe um comentário